九游乐乐影视网

 找回密码
 立即注册
搜索
热搜: 活动 交友 discuz
查看: 94|回复: 0

【免费/国语】火星救援(剧场版).[4K].MKV/6.99G.国英双语.特效字幕

[复制链接]

238

主题

238

帖子

760

积分

管理员

Rank: 9Rank: 9Rank: 9

积分
760
发表于 2019-10-26 19:16:26 | 显示全部楼层 |阅读模式

片源: Joy  非加长版 小体积4K
国配: 取自网络,由于时间太久具体那家已不记得还请见谅....表示感谢



◎译  名 火星救援/火星任务(港)/绝地救援(台)/火星人
◎片  名 The Martian
◎年  代 2015
◎产  地 美国/英国
◎类  别 剧情/科幻/冒险
◎语  言 英语/汉语普通话
◎字  幕 中英双字
◎上映日期 2015-10-02(美国)/2015-11-25(中国大陆)
◎豆瓣评分 8.4/10 from 376315 users
◎IMDb评分 8.0/10 from 660168 users
◎片  长 02:21:37 Mins
◎导  演 雷德利·斯科特 Ridley Scott
◎主  演 马特·达蒙
      杰西卡·查斯坦
      克里斯汀·韦格
      杰夫·丹尼尔斯
      迈克尔·佩纳
      凯特·玛拉
      肖恩·宾
      塞巴斯蒂安·斯坦
      唐纳德·格洛弗
      切瓦特·埃加福特
      阿卡塞尔·亨涅
      陈数
      高雄
      黄凯旋
      麦肯兹·戴维斯
      娜奥米·斯科特
      丽丽·博尔丹
      布莱恩·卡斯佩
◎简  介
  载人航天宇宙飞船阿瑞斯3号成功抵达火星,谁知一场破坏力极其巨大的风暴向宇航员们袭来,阿瑞斯3号被迫中断任务,紧急返航。撤离途中,宇航员马克·沃特尼(马特·达蒙 Matt Damon 饰)被飞船上吹落的零件击中,由于生还希望渺茫,队友们只得匆匆返航,并向世人宣告他已牺牲的事实。出乎意料的是,马克以极低的概率活了下来。他躲进驻火星的航天基地疗伤。下一次火星任务要等到四年后,而基地内的补给仅够他维持31天。短暂的绝望后,马克决定利用有限的食物,在这颗空无一人的星球上种植作物,寻找一线生机。与此同时,地球方面也很快发现马克生还的事实,他们想尽办法部署营救计划。孤军奋战的马克,能否等到救援队伍的到来?
  影片改编自安迪·威尔的同名科幻小说。
  • General
  • Unique ID                      : 212707561864259464795255227757610533702 (0xA005FC7CCB232C62BAB2BD048DBE0346)
  • Complete name                  : 火星救援.The.Martian.2015.2160p.BluRay.x265.HEVC.10bit.2Audio.AAC.AC3-Joy.国英双语.特效字幕.mkv
  • Format                         : Matroska
  • Format version                 : Version 4 / Version 2
  • File size                      : 6.99 GiB
  • Duration                       : 2 h 21 min
  • Overall bit rate               : 7 063 kb/s
  • Encoded date                   : UTC 2019-05-11 17:16:10
  • Writing application            : mkvmerge v11.0.0 ('Alive') 64bit
  • Writing library                : libebml v1.3.4 + libmatroska v1.4.5
  • Video
  • ID                             : 1
  • Format                         : HEVC
  • Format/Info                    : High Efficiency Video Coding
  • Format profile                 : Main [email protected]@Main
  • Codec ID                       : V_MPEGH/ISO/HEVC
  • Duration                       : 2 h 21 min
  • Bit rate                       : 5 999 kb/s
  • Width                          : 3 840 pixels
  • Height                         : 1 600 pixels
  • Display aspect ratio           : 2.40:1
  • Frame rate mode                : Constant
  • Frame rate                     : 23.976 (24000/1001) FPS
  • Color space                    : YUV
  • Chroma subsampling             : 4:2:0
  • Bit depth                      : 10 bits
  • Bits/(Pixel*Frame)             : 0.041
  • Stream size                    : 5.93 GiB (85%)
  • Title                          : joy
  • Writing library                : x265 1.8+38-fe65544b6c40:[Windows][GCC 4.8.2][64 bit] 10bit
  • Encoding settings              : wpp / ctu=64 / min-cu-size=8 / max-tu-size=32 / tu-intra-depth=1 / tu-inter-depth=1 / me=1 / subme=2 / merange=57 / no-rect / no-amp / max-merge=2 / temporal-mvp / no-early-skip / rdpenalty=0 / no-tskip / no-tskip-fast / strong-intra-smoothing / no-lossless / no-cu-lossless / no-constrained-intra / no-fast-intra / open-gop / no-temporal-layers / interlace=0 / keyint=250 / min-keyint=23 / scenecut=40 / rc-lookahead=20 / lookahead-slices=0 / bframes=4 / bframe-bias=0 / b-adapt=2 / ref=3 / limit-refs=0 / weightp / no-weightb / aq-mode=1 / qg-size=32 / aq-strength=1.00 / cbqpoffs=0 / crqpoffs=0 / rd=3 / psy-rd=0.30 / rdoq-level=0 / psy-rdoq=0.00 / signhide / deblock / sao / no-sao-non-deblock / b-pyramid / cutree / rc=2 / pass / bitrate=6000 / qcomp=0.60 / qpmin=0 / qpmax=51 / qpstep=4 / cplxblur=20.0 / qblur=0.5 / ipratio=1.40 / pbratio=1.30
  • Default                        : Yes
  • Forced                         : No
  • Audio #1
  • ID                             : 2
  • Format                         : AAC
  • Format/Info                    : Advanced Audio Codec
  • Format profile                 : LC
  • Codec ID                       : A_AAC
  • Duration                       : 2 h 21 min
  • Bit rate                       : 353 kb/s
  • Channel(s)                     : 7 channels
  • Channel(s)_Original            : 8 channels
  • Channel positions              : Front: L C R, Side: L R, Back: L R, LFE
  • Sampling rate                  : 48.0 kHz
  • Frame rate                     : 46.875 FPS (1024 SPF)
  • Compression mode               : Lossy
  • Delay relative to video        : 9 ms
  • Stream size                    : 355 MiB (5%)
  • Title                          : 英语
  • Language                       : English
  • Default                        : Yes
  • Forced                         : No
  • Audio #2
  • ID                             : 3
  • Format                         : AC-3
  • Format/Info                    : Audio Coding 3
  • Format settings, Endianness    : Big
  • Codec ID                       : A_AC3
  • Duration                       : 2 h 21 min
  • Bit rate mode                  : Constant
  • Bit rate                       : 640 kb/s
  • Channel(s)                     : 6 channels
  • Channel positions              : Front: L C R, Side: L R, LFE
  • Sampling rate                  : 48.0 kHz
  • Frame rate                     : 31.250 FPS (1536 SPF)
  • Bit depth                      : 16 bits
  • Compression mode               : Lossy
  • Stream size                    : 648 MiB (9%)
  • Title                          : 国语
  • Language                       : Chinese
  • Service kind                   : Complete Main
  • Default                        : No
  • Forced                         : No
  • Text #1
  • ID                             : 4
  • Format                         : PGS
  • Muxing mode                    : zlib
  • Codec ID                       : S_HDMV/PGS
  • Codec ID/Info                  : Picture based subtitle format used on BDs/HD-DVDs
  • Duration                       : 2 h 14 min
  • Bit rate                       : 54.1 kb/s
  • Count of elements              : 7422
  • Stream size                    : 52.0 MiB (1%)
  • Title                          : 特效中英
  • Default                        : Yes
  • Forced                         : No
  • Text #2
  • ID                             : 5
  • Format                         : ASS
  • Codec ID                       : S_TEXT/ASS
  • Codec ID/Info                  : Advanced Sub Station Alpha
  • Duration                       : 2 h 14 min
  • Bit rate                       : 213 b/s
  • Count of elements              : 2007
  • Compression mode               : Lossless
  • Stream size                    : 210 KiB (0%)
  • Title                          : ASS简英
  • Default                        : No
  • Forced                         : No
  • Text #3
  • ID                             : 6
  • Format                         : ASS
  • Codec ID                       : S_TEXT/ASS
  • Codec ID/Info                  : Advanced Sub Station Alpha
  • Duration                       : 2 h 14 min
  • Bit rate                       : 117 b/s
  • Count of elements              : 2005
  • Compression mode               : Lossless
  • Stream size                    : 116 KiB (0%)
  • Title                          : ASS简中
  • Default                        : No
  • Forced                         : No
  • Text #4
  • ID                             : 7
  • Format                         : UTF-8
  • Codec ID                       : S_TEXT/UTF8
  • Codec ID/Info                  : UTF-8 Plain Text
  • Duration                       : 2 h 14 min
  • Bit rate                       : 51 b/s
  • Count of elements              : 1925
  • Stream size                    : 50.4 KiB (0%)
  • Title                          : SRT简体
  • Default                        : No
  • Forced                         : No
  • Text #5
  • ID                             : 8
  • Format                         : VobSub
  • Muxing mode                    : zlib
  • Codec ID                       : S_VOBSUB
  • Codec ID/Info                  : Picture based subtitle format used on DVDs
  • Duration                       : 2 h 20 min
  • Bit rate                       : 5 515 b/s
  • Count of elements              : 1751
  • Stream size                    : 5.53 MiB (0%)
  • Title                          : 原盘中字
  • Default                        : No
  • Forced                         : No
  • Text #6
  • ID                             : 9
  • Format                         : PGS
  • Muxing mode                    : zlib
  • Codec ID                       : S_HDMV/PGS
  • Codec ID/Info                  : Picture based subtitle format used on BDs/HD-DVDs
  • Duration                       : 2 h 15 min
  • Bit rate                       : 14.1 kb/s
  • Count of elements              : 4290
  • Stream size                    : 13.7 MiB (0%)
  • Title                          : 英文
  • Default                        : No
  • Forced                         : No

[color=rgb(51, 102, 153) !important]复制代码





游客,如果您要查看本帖隐藏内容请回复

回复

使用道具 举报

您需要登录后才可以回帖 登录 | 立即注册

本版积分规则

Archiver|手机版|小黑屋|九游乐乐影视网

GMT+8, 2019-11-12 14:14 , Processed in 0.047929 second(s), 21 queries , Gzip On.

Powered by Discuz! X3.4 Designed by 999test.cn & 九游乐乐影视网

© 2001-2013 Comsenz Inc.

快速回复 返回顶部 返回列表